fastshare
Where the Trail Ends (2012)
Zapnout statistiky
Poslední návštěva: stř led 17, 2018 2:53 pm Právě je stř led 17, 2018 2:53 pm





Všechny časy jsou v UTC




 [ Příspěvek: 1 ] 
 Where the Trail Ends (2012) 
Autor Zpráva
Private 2 nd class
Private 2 nd class

Registrován: čtv lis 08, 2012 7:32 pm
Příspěvky: 44
Příspěvek Where the Trail Ends (2012)

Where.the.Trail.Ends.2012.720p.Bluray.x264-ESiR


Where the Trail Ends (2012)


INFO

CSFD


Citace:
Where the Trail Ends... (2012)
GENRE..: Extreme Sports
TAGLiNE: MTB
PLOT...: A film following the worlds' top freeride mountain bikers as they search for un-ridden terrain around the globe, ultimately shaping the future of big mountain freeriding. This is the most progressive and ambitious mountain biking ever attempted.



RELEASE.NAME..: Where.the.Trail.Ends.2012.720p.Bluray.x264-ESiR
RELEASE.DATE..: 31.11.2012
THEATRE.DATE..: 19.09.2012
RUNTiME.......: 01:21:49
SiZE..........: 4.38 GB
FRAMERATE.....: 23.976
BiTRATE.......: 6500 kbps
RESOLUTiON....: 1280x720
AUDiO.........: AC3 5.1 640 kbps
SUBTiTLES.....: Eng, Ger, Fre, Ita, Spa ,Por - ASS
CHAPTERS......: Yes
SOURCE........: Where.The.Trail.Ends.2012.Bluray.1080p.Remux.AC3-XB

Format : Matroska
Format version : Version 2
File size : 4.08 GiB
Duration : 1h 21mn
Overall bit rate : 7 140 Kbps
Movie name : Where.the.Trail.Ends.2012.720p.Bluray.x264-ESiR
Encoded date : UTC 2012-10-31 15:20:59
Writing application : mkvmerge v5.8.0 ('No Sleep / Pillow') built on Sep 2 2012 15:37:04
Writing library : libebml v1.2.3 + libmatroska v1.3.0

Video
ID : 1
Format : AVC
Format/Info : Advanced Video Codec
Format profile : [email protected]
Format settings, CABAC : Yes
Format settings, ReFrames : 9 frames
Muxing mode : Header stripping
Codec ID : V_MPEG4/ISO/AVC
Duration : 1h 21mn
Bit rate : 6 358 Kbps
Width : 1 280 pixels
Height : 720 pixels
Display aspect ratio : 16:9
Frame rate : 23.976 fps
Color space : YUV
Chroma subsampling : 4:2:0
Bit depth : 8 bits
Scan type : Progressive
Bits/(Pixel*Frame) : 0.288
Stream size : 3.63 GiB (89%)
Title : Where the Trail Ends...
Writing library : x264 core 125 r2200 999b753
Encoding settings : ??
Language : English
Default : Yes
Forced : No

Audio
ID : 2
Format : AC-3
Format/Info : Audio Coding 3
Mode extension : CM (complete main)
Format settings, Endianness : Big
Muxing mode : Header stripping
Codec ID : A_AC3
Duration : 1h 21mn
Bit rate mode : Constant
Bit rate : 640 Kbps
Channel(s) : 6 channels
Channel positions : Front: L C R, Side: L R, LFE
Sampling rate : 48.0 KHz
Bit depth : 16 bits
Compression mode : Lossy
Stream size : 375 MiB (9%)
Title : AC3 5.1 @ 640 kbps
Language : English
Default : Yes
Forced : No

Text #1
ID : 3
Format : ASS
Codec ID : S_TEXT/ASS
Codec ID/Info : Advanced Sub Station Alpha
Compression mode : Lossless
Language : English
Default : Yes
Forced : No

Text #2
ID : 4
Format : ASS
Codec ID : S_TEXT/ASS
Codec ID/Info : Advanced Sub Station Alpha
Compression mode : Lossless
Language : French
Default : No
Forced : No

Text #3
ID : 5
Format : ASS
Codec ID : S_TEXT/ASS
Codec ID/Info : Advanced Sub Station Alpha
Compression mode : Lossless
Language : German
Default : No
Forced : No

Text #4
ID : 6
Format : ASS
Codec ID : S_TEXT/ASS
Codec ID/Info : Advanced Sub Station Alpha
Compression mode : Lossless
Language : Italian
Default : No
Forced : No

Text #5
ID : 7
Format : ASS
Codec ID : S_TEXT/ASS
Codec ID/Info : Advanced Sub Station Alpha
Compression mode : Lossless
Language : Spanish
Default : No
Forced : No

Text #6
ID : 8
Format : ASS
Codec ID : S_TEXT/ASS
Codec ID/Info : Advanced Sub Station Alpha
Compression mode : Lossless
Language : Portuguese
Default : No
Forced : No




DOWNLOAD

eDisk


Hellshare


no pass


sob pro 08, 2012 8:53 pm Profil
Zobrazit příspěvky za předchozí:  Seřadit podle  
 [ Příspěvek: 1 ] 

Všechny časy jsou v UTC


Nemůžete zakládat nová témata v tomto fóru
Nemůžete odpovídat v tomto fóru
Nemůžete upravovat své příspěvky v tomto fóru
Nemůžete mazat své příspěvky v tomto fóru
Nemůžete přikládat soubory v tomto fóru









StahovaniZaSMS Pizza Modena MP3 free download