fastshare
I Am Bruce Lee (2011)
Zapnout statistiky
Poslední návštěva: sob led 20, 2018 3:15 pm Právě je sob led 20, 2018 3:15 pm





Všechny časy jsou v UTC




 [ Příspěvek: 1 ] 
 I Am Bruce Lee (2011) 
Autor Zpráva
Colonel 3 rd class
Colonel 3 rd class

Registrován: úte led 05, 2010 7:30 am
Příspěvky: 471
Příspěvek I Am Bruce Lee (2011)

I.Am.Bruce.Lee.2011.1080p.BluRay.x264-GECKOS


I Am Bruce Lee (2011)

CSFD



Citace:
Format : Matroska
Format version : Version 2
File size : 6.55 GiB
Duration : 1h 30mn
Overall bit rate : 10.4 Mbps

Video
ID : 1
Format : AVC
Format/Info : Advanced Video Codec
Format profile : [email protected]
Format settings, CABAC : Yes
Format settings, ReFrames : 4 frames
Muxing mode : Header stripping
Codec ID : V_MPEG4/ISO/AVC
Duration : 1h 30mn
Bit rate : 9 632 Kbps
Width : 1 920 pixels
Height : 1 080 pixels
Display aspect ratio : 16:9
Frame rate mode : Constant
Frame rate : 25.000 fps
Color space : YUV
Chroma subsampling : 4:2:0
Bit depth : 8 bits
Scan type : Progressive
Bits/(Pixel*Frame) : 0.186
Stream size : 5.95 GiB (91%)
Language : English
Default : Yes
Forced : No

Audio
ID : 2
Format : DTS
Format/Info : Digital Theater Systems
Muxing mode : Header stripping
Codec ID : A_DTS
Duration : 1h 30mn
Bit rate mode : Constant
Bit rate : 755 Kbps
Channel(s) : 6 channels
Channel positions : Front: L C R, Side: L R, LFE
Sampling rate : 48.0 KHz
Bit depth : 24 bits
Compression mode : Lossy
Stream size : 487 MiB (7%)
Language : English
Default : Yes
Forced : No

Text
ID : 3
Format : UTF-8
Codec ID : S_TEXT/UTF8
Codec ID/Info : UTF-8 Plain Text
Title : Czech
Language : Czech
Default : Yes
Forced : No


I Am Bruce Lee (2011)


I Am Bruce Lee (2011)



I Am Bruce Lee (2011)


Přidán záznam na opravu dat 5%


pát srp 31, 2012 2:02 pm Profil
Zobrazit příspěvky za předchozí:  Seřadit podle  
 [ Příspěvek: 1 ] 

Všechny časy jsou v UTC


Nemůžete zakládat nová témata v tomto fóru
Nemůžete odpovídat v tomto fóru
Nemůžete upravovat své příspěvky v tomto fóru
Nemůžete mazat své příspěvky v tomto fóru
Nemůžete přikládat soubory v tomto fóru









StahovaniZaSMS Pizza Modena MP3 free download